Loading...
Error
 
Мини-чат
 

Скачать торрент (Psydub, Ambient, Downtempo) Geometrae - Luminescence - 2020, [WEB] [FLAC, tracks, lossless]



 
Автор Сообщение

Myster_Ya

post 17-Окт-20 23:04

pic
Geometrae - Luminescence

Жанр: Psydub, Ambient, Downtempo
Носитель: WEB
Лейбл: Merkaba Music
Год издания: 2020
Аудиокодек:FLAC
Тип рипа: tracks
Продолжительность: 01:00:40
Источник: deezer
Наличие сканов в содержимом раздачи: нет
Треклист:
01. Geometrae - Frequency Shift [7:08]
02. Geometrae - Blue Star Spiral [7:01]
03. Geometrae - Chakana Zia [7:56]
04. Geometrae - Magnetic Sunlight [6:56]
05. Geometrae - Initiation [7:26]
06. Geometrae - Solar Iris [8:23]
07. Geometrae - RainMaker [7:29]
08. Geometrae - Lunaris Transmission [8:21]
DR
foobar2000 1.5.5 / Замер динамического диапазона (DR) 1.1.1
Дата отчёта: 2020-10-02 18:25:49

--------------------------------------------------------------------------------
Анализ: Geometrae / Luminescence
--------------------------------------------------------------------------------

DR Пики RMS Продолжительность трека
--------------------------------------------------------------------------------
DR7 0.00 дБ -8.94 дБ 7:08 01-Frequency Shift
DR6 0.00 дБ -8.26 дБ 7:01 02-Blue Star Spiral
DR7 0.00 дБ -9.38 дБ 7:56 03-Chakana Zia
DR7 0.00 дБ -9.25 дБ 6:56 04-Magnetic Sunlight
DR6 0.00 дБ -7.89 дБ 7:26 05-Initiation
DR5 -0.18 дБ -8.31 дБ 8:23 06-Solar Iris
DR7 0.00 дБ -8.62 дБ 7:29 07-RainMaker
DR7 0.00 дБ -9.02 дБ 8:21 08-Lunaris Transmission
--------------------------------------------------------------------------------

Количество треков: 8
Реальные значения DR: DR7

Частота: 44100 Гц
Каналов: 2
Разрядность: 16
Битрейт: 902 кбит/с
Кодек: FLAC
================================================================================
Лог проверки качества
fooCDtect - foobar2000 + auCDtect, baralgin.

auCDtect: CD records authenticity detector, version 0.8.2
Copyright (c) 2004 Oleg Berngardt. All rights reserved.
Copyright (c) 2004 Alexander Djourik. All rights reserved.

mode: 40

===========================================
Track: 04. Geometrae - Magnetic Sunlight
Quality: CDDA 99%
===========================================
Track: 02. Geometrae - Blue Star Spiral
Quality: CDDA 100%
===========================================
Track: 01. Geometrae - Frequency Shift
Quality: CDDA 100%
===========================================
Track: 03. Geometrae - Chakana Zia
Quality: CDDA 100%
===========================================
Track: 05. Geometrae - Initiation
Quality: CDDA 100%
===========================================
Track: 06. Geometrae - Solar Iris
Quality: CDDA 99%
===========================================
Track: 07. Geometrae - RainMaker
Quality: CDDA 100%
===========================================
Track: 08. Geometrae - Lunaris Transmission
Quality: CDDA 100%
===========================================
Geometrae - Luminescence

Geometrae - 2020 - Luminescence (Album).torrent
Трекер: Зарегистрирован

magnet ссылка

 


Скачать .torrent

16 KB

Статус: проверено (by ilyash_rekviem в 18-Окт-20 01:03)
Зарегистрирован: 17-Окт-20 23:04
Скачан: 12 раз
Размер: 391 MB | 
Поблагодарили:
Скачать (Psydub, Ambient, Downtempo) Geometrae - Luminescence - 2020, [WEB] [FLAC, tracks, lossless] торрент
 


Похожие раздачи

Текущее время: 03-Дек 01:42

Часовой пояс: GMT + 3



Вы не можете начинать темы
Вы не можете отвечать на сообщения
Вы не можете редактировать свои сообщения
Вы не можете удалять свои сообщения
Вы не можете голосовать в опросах
Вы не можете прикреплять файлы к сообщениям
Вы не можете скачивать файлы